Forbrydelsen - Season 1 - 720p x265 HEVC - DAN-ITA (ENG SUBS) [BRSHNKV]

Technical Details

Size 5.33 Gb
Seed 3
Leach 1
Hash 2F0E6270757233BBA8AC8C75FAB4231C15F31098
Added 8 m ago

Vote for Torrent

 Like 0  Dislike 0

Torrent Health

75 %

Files

 or selectively click on the files tree

  • Forbrydelsen - Season 1 - 720p x265 HEVC - DAN-ITA (ENG SUBS) [BRSHNKV]
    • 07. Sunday November 9 .mp4 (303.89 Mb)
    • 08. Monday November 10 .mp4 (297.44 Mb)
    • 09. Tuesday November 11 .mp4 (294.04 Mb)
    • 20. Saturday November .mp4 (277.46 Mb)
    • 16. Tuesday November 18 .mp4 (276.77 Mb)
    • 14. Sunday November 16 .mp4 (275.80 Mb)
    • 06. Saturday November 8 .mp4 (275.49 Mb)
    • 03. Wednesday November 5 .mp4 (273.67 Mb)
    • 19. Friday November 21.mp4 (273.47 Mb)
    • 18. Thursday November 20 .mp4 (272.95 Mb)
    • 15. Monday November 17 .mp4 (272.74 Mb)
    • 04. Thursday November 6 .mp4 (271.62 Mb)
    • 17. Wednesday November 19 .mp4 (269.99 Mb)
    • 10. Wednesday November 12 .mp4 (263.71 Mb)
    • 13. Saturday November 15 .mp4 (263.26 Mb)
    • 12. Friday November 14 .mp4 (260.30 Mb)
    • 02. Tuesday November 4 .mp4 (260.22 Mb)
    • 11. Thursday November 13 .mp4 (258.39 Mb)
    • 05. Friday November 7 .mp4 (257.36 Mb)
    • 01. Monday November 3 .mp4 (256.05 Mb)
    • 17. Wednesday November 19 .srt (51.42 Kb)
    • 12. Friday November 14 .srt (50.41 Kb)
    • 14. Sunday November 16 .srt (49.39 Kb)
    • 06. Saturday November 8 .srt (48.68 Kb)
    • 19. Friday November 21.srt (48.66 Kb)
    • 18. Thursday November 20 .srt (48.58 Kb)
    • 07. Sunday November 9 .srt (48.03 Kb)
    • 16. Tuesday November 18 .srt (46.74 Kb)
    • 13. Saturday November 15 .srt (46.35 Kb)
    • 11. Thursday November 13 .srt (45.25 Kb)
    • 04. Thursday November 6 .srt (43.78 Kb)
    • 09. Tuesday November 11 .srt (43.49 Kb)
    • 10. Wednesday November 12.srt (43.30 Kb)
    • 01. Monday November 3 .srt (43.07 Kb)
    • 03. Wednesday November 5 .srt (42.87 Kb)
    • 15. Monday November 17 .srt (42.57 Kb)
    • 20. Saturday November .srt (41.76 Kb)
    • 08. Monday November 10 .srt (40.94 Kb)
    • 05. Friday November 7 .srt (39.00 Kb)
    • 02. Tuesday November 4 .srt (38.62 Kb)

Trackers

udp://tracker.opentrackr.org:1337/announce
udp://tracker.coppersurfer.tk:6969
udp://tracker.leechers-paradise.org:6969/announce
udp://tracker.coppersurfer.tk:6969/announce

Add Comment

Comments

There are no comments yet. Be first.

Please Share

Description

The brutal murder of a young girl launches an extended police investigation. Detective Sarah Lund is supposed to leave for a new life in Sweden, but can't bring herself to leave the case behind. The girl's parents and friends struggle to cope with their loss. Troels Hartmann is campaigning to be mayor of Copenhagen, but struggles when links are revealed between city hall and the murder. Over a time span of twenty days, suspect upon suspect is sought out as violence and political pressures cast their shadows over the hunt for the killer.


Tech:

Format : MPEG-4
Format profile : Base Media / Version 2
Codec ID : mp42
Overall bit rate mode : Variable
Overall bit rate : 659 Kbps
Encoded date : UTC 2016-01-17 12:10:05
Tagged date : UTC 2016-01-17 12:10:05
Writing application : HandBrake 0.10.2 2015061100

Video
ID : 1
Format : HEVC
Format/Info : High Efficiency Video Coding
Format profile : [email protected]@Main
Codec ID : hev1
Codec ID/Info : High Efficiency Video Coding
Bit rate : 321 Kbps
Width : 1 280 pixels
Height : 720 pixels
Display aspect ratio : 16:9
Frame rate mode : Constant
Frame rate : 25.000 fps
Color space : YUV
Chroma subsampling : 4:2:0
Bit depth : 8 bits
Bits/(Pixel*Frame) : 0.014
Stream size : 125 MiB (49%)
Writing library : x265 1.5:[Mac OS X][clang 6.1.0][64 bit]
Encoded date : UTC 2016-01-17 12:10:05
Tagged date : UTC 2016-01-17 12:10:05
Color range : Limited
Color primaries : BT.709
Transfer characteristics : BT.709
Matrix coefficients : BT.709

Audio #1
ID : 2
Format : AAC
Format/Info : Advanced Audio Codec
Format profile : LC
Codec ID : 40
Bit rate mode : Variable
Bit rate : 164 Kbps
Channel(s) : 2 channels
Channel positions : Front: L R
Sampling rate : 48.0 KHz
Compression mode : Lossy
Stream size : 63.9 MiB (25%)
Title : Stereo / Stereo
Language : Italian
Encoded date : UTC 2016-01-17 12:10:05
Tagged date : UTC 2016-01-17 12:10:05

Audio #2
ID : 3
Format : AAC
Format/Info : Advanced Audio Codec
Format profile : LC
Codec ID : 40
Bit rate mode : Variable
Bit rate : 164 Kbps
Channel(s) : 2 channels
Channel positions : Front: L R
Sampling rate : 48.0 KHz
Compression mode : Lossy
Stream size : 63.9 MiB (25%)
Title : Stereo / Stereo
Language : Danish
Encoded date : UTC 2016-01-17 12:10:05
Tagged date : UTC 2016-01-17 12:10:05